<?xml version="1.0" standalone="no"?>
<!DOCTYPE svg PUBLIC "-//W3C//DTD SVG 1.1//EN" "http://www.w3.org/Graphics/SVG/1.1/DTD/svg11.dtd" >
<svg xmlns="http://www.w3.org/2000/svg">
<metadata>Generated by IcoMoon</metadata>
<defs>
<font id="icomoon" horiz-adv-x="1024">
<font-face units-per-em="1024" ascent="960" descent="-64" />
<missing-glyph horiz-adv-x="1024" />
<glyph unicode="&#x20;" horiz-adv-x="512" d="" />
<glyph unicode="&#xe900;" glyph-name="icon-1" d="M884.968 407.521l-62.401 153.52c-2.915 7.221-7.926 13.404-14.385 17.753s-14.075 6.663-21.862 6.647h-88.279v58.448c-0.010 10.061-4.012 19.705-11.126 26.82s-16.758 11.119-26.819 11.131h-441.064c-10.061-0.012-19.705-4.016-26.819-11.131s-11.116-16.759-11.126-26.82v-106.4h-29.088c-3.713 0-7.274-1.475-9.9-4.101s-4.1-6.187-4.1-9.899c0-3.714 1.475-7.274 4.1-9.9 2.626-2.625 6.186-4.099 9.9-4.099h29.088v-207.281c0.014-10.061 4.016-19.705 11.131-26.819s16.761-11.114 26.822-11.124h41.4c3.249-17.142 12.382-32.609 25.818-43.737s30.334-17.217 47.782-17.217c17.446 0 34.345 6.089 47.78 17.217 13.437 11.127 22.569 26.595 25.82 43.737h296.759c3.251-17.142 12.384-32.609 25.818-43.737 13.437-11.127 30.336-17.217 47.782-17.217s34.345 6.089 47.782 17.217 22.569 26.595 25.818 43.737h20.401c3.712 0 7.274 1.475 9.899 4.099 2.625 2.627 4.101 6.187 4.101 9.9v123.976c-0.002 1.809-0.352 3.603-1.033 5.28zM851.2 416.249l-91.761 0.391 0.481 84.881h56.576l34.703-85.272zM302.967 537.465h-93.88v106.399c0 2.639 1.048 5.169 2.913 7.035 1.864 1.867 4.393 2.915 7.031 2.918h441.064c2.637-0.005 5.166-1.055 7.030-2.92s2.912-4.395 2.915-7.033v-250.767h-460.954v116.367h93.88c3.714 0 7.274 1.476 9.9 4.101s4.099 6.187 4.099 9.9c0 3.712-1.475 7.274-4.099 9.899-2.627 2.625-6.187 4.101-9.9 4.101zM209.12 302.184v62.913h460.88v-72.856h-262.32c-3.268 17.126-12.406 32.577-25.841 43.689-13.435 11.114-30.324 17.195-47.759 17.195s-34.324-6.081-47.759-17.195c-13.435-11.112-22.572-26.563-25.841-43.689h-41.407c-2.639 0.002-5.168 1.050-7.033 2.913-1.865 1.865-2.915 4.393-2.92 7.030zM334.080 231.281c-9.276 0.009-18.343 2.765-26.052 7.924s-13.718 12.488-17.263 21.059c-3.546 8.573-4.473 18.004-2.661 27.1 1.811 9.098 6.279 17.456 12.839 24.015s14.915 11.027 24.013 12.839 18.529 0.886 27.1-2.661c8.573-3.546 15.901-9.554 21.060-17.263 5.158-7.711 7.916-16.777 7.924-26.052-0.014-12.452-4.965-24.388-13.769-33.193-8.803-8.803-20.741-13.756-33.191-13.768zM777.999 231.281c-9.276 0.009-18.342 2.765-26.052 7.924-7.709 5.159-13.716 12.488-17.263 21.059-3.546 8.573-4.473 18.004-2.661 27.1 1.812 9.098 6.279 17.456 12.839 24.015 6.559 6.56 14.916 11.027 24.015 12.839 9.097 1.812 18.528 0.886 27.1-2.661s15.899-9.554 21.059-17.263c5.159-7.711 7.916-16.777 7.924-26.052-0.015-12.45-4.966-24.387-13.771-33.19-8.803-8.805-20.739-13.756-33.19-13.771zM851.599 292.241c-3.268 17.126-12.406 32.577-25.841 43.689-13.433 11.114-30.324 17.195-47.759 17.195s-34.324-6.081-47.759-17.195c-13.433-11.112-22.572-26.563-25.841-43.689h-6.4v265.199h88.32c2.215 0.005 4.381-0.655 6.217-1.893s3.26-2.997 4.087-5.050l8.528-20.977h-45.232c-7.552-0.009-14.79-3.012-20.13-8.351-5.338-5.34-8.342-12.578-8.351-20.128v-84.401c0.009-7.55 3.012-14.79 8.351-20.128s12.578-8.342 20.13-8.351h98.079v-95.92h-6.4zM152 720.616h143.079c3.714 0 7.276 1.476 9.9 4.101s4.101 6.187 4.101 9.899c0 3.714-1.476 7.276-4.101 9.9s-6.187 4.101-9.9 4.101h-143.079c-3.713 0-7.274-1.476-9.9-4.101s-4.1-6.187-4.1-9.9c0-3.712 1.475-7.274 4.1-9.899s6.186-4.101 9.9-4.101zM409.033 596.065c0.002 1.838-0.36 3.659-1.063 5.359-0.703 1.698-1.734 3.243-3.034 4.543-1.3 1.299-2.845 2.331-4.543 3.034-1.7 0.703-3.521 1.063-5.359 1.063h-147.4c-3.714 0-7.274-1.475-9.9-4.101-2.625-2.625-4.099-6.187-4.099-9.899 0-3.714 1.475-7.274 4.099-9.9 2.627-2.625 6.187-4.099 9.9-4.099h147.4c3.712 0 7.274 1.475 9.899 4.099 2.627 2.627 4.101 6.187 4.101 9.9zM369.297 720.616h29.896c3.714 0 7.274 1.476 9.9 4.101s4.099 6.187 4.099 9.899c0 3.714-1.475 7.276-4.099 9.9-2.627 2.625-6.187 4.101-9.9 4.101h-29.896c-3.712 0-7.274-1.476-9.899-4.101-2.627-2.625-4.101-6.187-4.101-9.9s1.475-7.274 4.101-9.899c2.625-2.625 6.187-4.101 9.899-4.101z" />
<glyph unicode="&#xe901;" glyph-name="icon-2" d="M741.001 513.57v215.654c0 4.526-1.799 8.868-4.999 12.068-3.2 3.202-7.542 4.999-12.068 4.999-47.053 0-85.333 38.281-85.333 85.334 0 4.526-1.799 8.867-4.999 12.068s-7.542 4.999-12.068 4.999h-399.684c-4.526 0-8.868-1.798-12.068-4.999s-4.999-7.542-4.999-12.068c-0.022-22.622-9.018-44.311-25.013-60.309s-37.681-24.998-60.303-25.025c-4.526 0-8.867-1.797-12.068-4.999-3.201-3.2-4.999-7.542-4.999-12.068v-316.075c0-176.077 299.571-312.286 312.32-318.003 2.193-0.981 4.569-1.488 6.972-1.488s4.779 0.507 6.972 1.488c1.399 0.614 31.983 14.387 73.779 38.4 43.435-52.617 109.141-86.221 182.545-86.221 130.475 0 236.612 106.155 236.612 236.612 0 111.138-77.141 204.373-180.599 229.632zM421.717 129.553c-44.339 21.197-285.184 142.882-285.184 283.597v300.237c25.508 3.724 49.133 15.582 67.36 33.811 18.229 18.227 30.087 41.853 33.811 67.361h367.974c3.727-25.51 15.589-49.135 33.819-67.363 18.232-18.229 41.859-30.085 67.369-33.809v-193.929c-7.219 0.666-14.507 1.109-21.879 1.109-130.475 0-236.612-106.155-236.612-236.612 0-44.783 12.732-86.562 34.441-122.317-19.971-11.43-40.351-22.132-61.099-32.085zM684.988 81.459c-111.65 0-202.479 90.829-202.479 202.479s90.829 202.479 202.479 202.479c111.65 0 202.479-90.829 202.479-202.479s-90.829-202.479-202.479-202.479zM684.983 369.818c18.961 0 34.389-15.428 34.389-34.406 0-4.526 1.799-8.868 4.999-12.068 3.202-3.2 7.542-4.999 12.068-4.999 4.528 0 8.868 1.799 12.070 4.999 3.2 3.2 4.997 7.542 4.997 12.068 0 31.863-21.948 58.487-51.456 66.133v11.844c0 4.526-1.797 8.868-4.999 12.068-3.2 3.2-7.54 4.999-12.068 4.999-4.526 0-8.866-1.799-12.068-4.999-3.2-3.2-4.999-7.542-4.999-12.068v-11.844c-29.525-7.646-51.473-34.27-51.473-66.133 0.019-18.173 7.247-35.596 20.096-48.445s30.273-20.076 48.444-20.094c18.961 0 34.389-15.428 34.389-34.406s-15.428-34.406-34.389-34.406c-9.122 0.009-17.867 3.637-24.318 10.088-6.451 6.449-10.078 15.196-10.088 24.318 0 4.526-1.797 8.868-4.997 12.068-3.202 3.2-7.542 4.999-12.070 4.999-4.526 0-8.866-1.799-12.068-4.999-3.2-3.2-4.999-7.542-4.999-12.068 0-31.863 21.948-58.487 51.473-66.133v-11.844c0-4.526 1.799-8.868 4.999-12.068 3.202-3.2 7.542-4.999 12.068-4.999 4.528 0 8.868 1.799 12.068 4.999 3.202 3.2 4.999 7.542 4.999 12.068v11.844c29.508 7.646 51.456 34.27 51.456 66.133-0.017 18.169-7.241 35.589-20.087 48.439s-30.264 20.079-48.435 20.101c-9.122 0.009-17.867 3.637-24.318 10.088-6.451 6.449-10.078 15.196-10.088 24.318 0 18.978 15.428 34.406 34.406 34.406zM506.243 570.709c-3.2 3.2-7.54 4.997-12.066 4.997-4.524 0-8.864-1.797-12.066-4.997l-113.289-113.289-50.381 50.381c-1.574 1.63-3.456 2.93-5.54 3.825-2.082 0.894-4.321 1.365-6.588 1.386-2.265 0.019-4.512-0.413-6.61-1.271s-4.004-2.125-5.606-3.727c-1.601-1.603-2.869-3.507-3.727-5.605s-1.29-4.345-1.27-6.612c0.019-2.266 0.49-4.506 1.384-6.588s2.195-3.966 3.825-5.54l62.447-62.447c3.202-3.2 7.542-4.997 12.066-4.997 4.526 0 8.866 1.797 12.066 4.997l125.355 125.355c3.2 3.2 4.997 7.54 4.997 12.066s-1.797 8.866-4.997 12.066z" />
<glyph unicode="&#xe902;" glyph-name="icon-3" d="M952.089 513.552c-3.647 111.305-49.635 217.020-128.578 295.569-83.247 83.264-193.886 129.104-311.519 129.104-237.584 0-431.712-189.104-440.080-424.673-18.319-8.114-33.892-21.367-44.831-38.154-10.939-16.785-16.775-36.385-16.801-56.42v-116.193c0.030-27.437 10.942-53.742 30.344-73.144 19.401-19.401 45.707-30.314 73.144-30.343 17.752 0.020 34.772 7.082 47.324 19.636 12.553 12.552 19.615 29.571 19.636 47.323v189.264c0 34.673-26.592 62.945-60.4 66.304 12.48 205.232 183.329 368.401 391.664 368.401 104.833 0 203.407-40.864 277.6-115.056 68.129-68.128 107.999-156.927 114-253.359-33.776-3.394-60.32-31.65-60.32-66.29v-189.247c0-34.959 27.007-63.408 61.217-66.367v-47.825c-0.031-25.895-10.332-50.721-28.645-69.032-18.311-18.309-43.139-28.606-69.036-28.631h-72.335c-4.876 14.217-14.084 26.552-26.329 35.271-12.245 8.716-26.913 13.382-41.943 13.337h-74.559c-10.705 0-20.976-2.271-30.384-6.656-12.597-5.82-23.267-15.12-30.753-26.806-7.483-11.686-11.471-25.268-11.487-39.145 0-19.423 7.567-37.665 21.279-51.313 6.722-6.775 14.721-12.147 23.536-15.804 8.813-3.66 18.266-5.532 27.81-5.507h74.559c30.913 0 58.159 19.984 68.319 48.624h72.288c80.337 0 145.68 65.346 145.68 145.664v56.369c18.211 8.159 33.675 21.408 44.536 38.148 10.861 16.742 16.652 36.264 16.681 56.22v116.191c0 42.144-25.377 78.432-61.616 94.544zM132.712 455.52v-189.247c0-10.447-8.496-18.96-18.96-18.96-14.711 0.018-28.815 5.87-39.217 16.271s-16.254 24.506-16.271 39.217v116.191c0.017 14.713 5.869 28.815 16.271 39.217 10.402 10.404 24.506 16.255 39.217 16.271 10.464 0 18.96-8.511 18.96-18.96zM690.28 25.264c-1.192-5.509-4.231-10.447-8.614-13.994s-9.845-5.491-15.483-5.509h-74.559c-6.56 0-12.72 2.56-17.424 7.264-2.29 2.273-4.104 4.979-5.341 7.959-1.235 2.98-1.868 6.175-1.86 9.4 0.018 6.525 2.617 12.777 7.234 17.388 4.614 4.612 10.867 7.209 17.392 7.221h74.559c6.56 0 12.72-2.544 17.408-7.248 4.641-4.624 7.201-10.799 7.201-17.361 0.016-1.759-0.176-3.518-0.512-5.12zM965.704 302.801c-0.016-14.711-5.868-28.815-16.271-39.217s-24.504-16.253-39.217-16.271c-5.026 0.004-9.847 2.003-13.402 5.558-3.553 3.555-5.552 8.374-5.556 13.402v189.247c0 10.449 8.495 18.96 18.958 18.96 14.713-0.016 28.815-5.868 39.217-16.271 10.404-10.402 16.255-24.504 16.271-39.217v-116.191zM667.392 294.529c26.962 0.031 52.812 10.754 71.877 29.819 19.067 19.065 29.79 44.915 29.819 71.877v207.217c0 27.105-10.592 52.64-29.823 71.873-19.233 19.233-44.753 29.823-71.873 29.823h-310.817c-26.962-0.029-52.812-10.752-71.877-29.819-19.065-19.065-29.788-44.915-29.819-71.877v-207.217c0.031-26.962 10.754-52.812 29.819-71.877s44.915-29.788 71.877-29.819h1.905v-53.697c-0.031-6.556 1.233-13.054 3.721-19.12 2.49-6.066 6.152-11.579 10.781-16.226 4.626-4.645 10.127-8.329 16.183-10.84 6.056-2.513 12.55-3.803 19.108-3.797 6.552-0.012 13.040 1.294 19.075 3.842 6.038 2.548 11.5 6.285 16.060 10.99l89.328 88.848h134.656zM505.936 335.553l-96.672-96.143c-0.432-0.449-0.752-0.784-1.665-0.383-1.104 0.446-1.104 1.167-1.104 1.806v77.697c0 6.365-2.527 12.47-7.029 16.97-4.502 4.502-10.605 7.031-16.97 7.031h-25.905c-14.236 0.016-27.884 5.679-37.949 15.745s-15.729 23.714-15.747 37.949v207.217c0.018 14.236 5.681 27.884 15.747 37.949 10.066 10.068 23.714 15.731 37.949 15.747h310.817c14.303 0 27.761-5.599 37.935-15.759 10.177-10.177 15.761-23.648 15.761-37.937v-207.217c-0.018-14.236-5.681-27.884-15.747-37.949s-23.714-15.729-37.949-15.745h-144.544c-6.353 0-12.433-2.513-16.929-6.978zM395.407 531.411c-19.519 0-35.408-15.905-35.408-35.41 0-19.503 15.905-35.408 35.408-35.408 19.536 0 35.441 15.905 35.441 35.408 0 19.505-15.888 35.41-35.441 35.41zM511.984 531.411c-19.519 0-35.408-15.905-35.408-35.41 0-19.503 15.905-35.408 35.408-35.408 19.552 0 35.441 15.905 35.441 35.408 0 19.505-15.888 35.41-35.441 35.41zM628.56 531.411c-19.519 0-35.408-15.905-35.408-35.41 0-19.503 15.905-35.408 35.408-35.408 19.536 0 35.441 15.905 35.441 35.408 0 19.505-15.905 35.41-35.441 35.41z" />
<glyph unicode="&#xe903;" glyph-name="icon-4" d="M898.152 184.001c3.977 0 7.793 1.579 10.607 4.393 2.814 2.812 4.393 6.627 4.393 10.607v359.999c0 17.904-6.978 36.219-19.649 51.569l-111.245 134.787c-5.663 6.887-12.341 12.874-19.804 17.754 0.446 4.584 0.7 9.214 0.7 13.888v168c0 3.978-1.581 7.794-4.393 10.607-2.814 2.813-6.629 4.393-10.607 4.393-3.979 0-7.795-1.58-10.607-4.393-2.814-2.813-4.393-6.628-4.393-10.607 0 0-0.031-169.43-0.043-170.146-4.278 0.76-8.614 1.144-12.958 1.146h-194.001c-13.658 0-27.046-3.832-39.031-10.874-0.524-0.185-1.036-0.399-1.536-0.64l-146.223-71.223c-16.243-8.174-29.139-21.742-36.479-38.38-0.080-0.182-0.156-0.362-0.229-0.547l-60.455-153.344c-1.393-3.688-1.28-7.774 0.317-11.379 1.595-3.604 4.547-6.435 8.212-7.881 3.668-1.446 7.756-1.391 11.383 0.154s6.498 4.456 7.997 8.102l60.338 153.047c4.538 10.138 12.472 18.444 22.209 23.333l77.257 37.63-77.111-93.43c-11.547-13.988-17.648-31.822-17.648-51.571v-518.001c0-6.031 0.528-11.938 1.491-17.693l-154.564 68.487c-34.916 15.471-50.74 56.564-35.268 91.605l0.194 0.457 97.767 242.969c1.485 3.69 1.444 7.819-0.117 11.481-1.559 3.66-4.51 6.55-8.2 8.034s-7.819 1.444-11.479-0.115c-3.662-1.561-6.552-4.51-8.036-8.2l-97.68-242.743c-21.964-50.1 0.724-108.784 50.666-130.912l181.248-80.31c0.221-0.098 0.449-0.17 0.672-0.256 18.395-28.746 50.201-47.798 86.307-47.798h370c56.916 0 104.999 48.083 104.999 104.999v88.001c0 3.979-1.579 7.795-4.393 10.607-2.814 2.814-6.629 4.393-10.607 4.393-3.979 0-7.795-1.579-10.607-4.393-2.814-2.812-4.393-6.627-4.393-10.607v-88.001c0-40.653-34.347-75-75-75h-370c-40.253 0-73.001 33.645-73.001 75v518.001c0 12.876 3.629 23.802 10.787 32.471l111.245 134.789c10.355 12.544 24.558 19.741 38.967 19.741h194.001c2.826 0 5.642-0.287 8.423-0.827-9.39-32.020-32.649-58.741-64.059-72.131-8.215 13.738-23.23 22.958-40.366 22.958-25.915 0-47-21.084-47-47.002 0-25.915 21.084-47 47-47 23.966 0 43.786 18.037 46.635 41.247 40.399 15.28 70.947 47.655 84.556 87.173 1.323-1.327 2.585-2.716 3.779-4.159l111.247-134.791c8.243-9.986 12.786-21.518 12.786-32.471v-359.999c0-1.97 0.387-3.92 1.141-5.741 0.754-1.819 1.858-3.473 3.25-4.866s3.047-2.497 4.866-3.25c1.821-0.754 3.77-1.143 5.741-1.141zM624.153 632.001c-9.374 0-17 7.625-17 16.998s7.627 17 17 17c9.374 0 17-7.627 17-17s-7.627-16.998-17-16.998zM494.16 162.001c1.97-0.004 3.922 0.383 5.743 1.137 1.819 0.756 3.473 1.862 4.864 3.256l256 256c2.812 2.814 4.393 6.627 4.393 10.607 0 3.977-1.581 7.793-4.393 10.607-2.814 2.812-6.629 4.391-10.607 4.391s-7.793-1.579-10.607-4.391l-256-256.002c-9.564-8.913-2.226-26.059 10.607-25.604zM526.16 320c35.84 0 64.999 29.159 64.999 64.999s-29.159 65.001-64.999 65.001h-1.999c-35.84 0-65.001-29.161-65.001-65.001s29.161-64.999 65.001-64.999h1.999zM489.161 384.999c0 19.298 15.702 35 35 35h1.999c19.298 0 35-15.702 35-35s-15.702-35-35-35h-1.999c-19.298 0-35 15.702-35 35zM720.161 162.001h1.999c35.84 0 64.999 29.159 64.999 64.999s-29.159 64.999-64.999 64.999h-1.999c-35.84 0-65.001-29.159-65.001-64.999s29.161-64.999 65.001-64.999zM720.161 262.001h1.999c19.298 0 35-15.702 35-35s-15.702-35-35-35h-1.999c-19.298 0-35 15.702-35 35s15.702 35 35 35z" />
<glyph unicode="&#xe904;" glyph-name="icon-5" d="M812.001 898h-240.002c-115.78 0-209.999-94.218-209.999-210 0-105.617 78.37-193.271 179.999-207.863v-92.136c-0.003-5.936 1.754-11.735 5.048-16.671 3.297-4.932 7.984-8.776 13.469-11.042 11.066-4.618 24.044-2.144 32.696 6.502l111.21 111.21h107.578c115.78 0 211.999 94.218 211.999 210s-96.218 210-211.999 210zM572 658.004c-16.572 0-30 13.432-30 30s13.428 30 30 30c16.568 0 30-13.432 30-30s-13.431-30-30-30zM691.999 658.004c-16.572 0-30 13.432-30 30s13.428 30 30 30c16.568 0 30-13.432 30-30s-13.431-30-30-30zM812.001 658.004c-16.572 0-30 13.432-30 30s13.428 30 30 30c16.568 0 30-13.432 30-30s-13.431-30-30-30zM674-2c49.626 0 89.999 40.373 89.999 89.999v120.003c0 12.919-8.26 24.375-20.507 28.447l-179.579 60c-8.789 2.959-18.398 1.611-26.132-3.485l-76.346-50.889c-80.862 38.554-176.807 134.502-215.363 215.361l50.888 76.349c2.531 3.802 4.161 8.134 4.764 12.663s0.167 9.134-1.278 13.469l-60 179.578c-1.987 5.973-5.804 11.168-10.91 14.849s-11.242 5.66-17.536 5.657h-122c-49.628 0-90-39.95-90-89.578 0-345.643 328.356-672.422 674-672.422z" />
<glyph unicode="&#xe905;" glyph-name="icon-6" d="M431.797 590.432c5.205-2.963 11.134-4.427 17.121-4.222 6.134 0.563 12.080 2.427 17.439 5.472l384.321 224.255c-8.352 14.557-20.388 26.661-34.895 35.097s-30.979 12.908-47.763 12.967h-639.999c-16.788-0.053-33.266-4.522-47.781-12.959s-26.553-20.543-34.908-35.105l386.464-225.505zM864 749.767v-222.4c-30.792 11.083-63.276 16.712-96 16.64-76.346-0.119-149.531-30.498-203.517-84.483s-84.364-127.171-84.483-203.517c-0.007-10.697 0.635-21.381 1.922-32h-353.922c-25.438 0.075-49.811 10.216-67.798 28.201-17.987 17.988-28.126 42.363-28.202 67.799v429.76l367.681-214.72c14.814-8.103 31.433-12.349 48.319-12.349s33.505 4.246 48.319 12.349l367.681 214.72zM768 480c-59.409 0-116.384-23.6-158.392-65.608s-65.608-98.983-65.608-158.392c0-59.409 23.6-116.384 65.608-158.392s98.983-65.608 158.392-65.608c8.486 0 16.626 3.372 22.627 9.373s9.373 14.141 9.373 22.627c0 8.486-3.372 16.626-9.373 22.627s-14.141 9.373-22.627 9.373c-31.645 0-62.58 9.383-88.89 26.965-26.313 17.582-46.821 42.568-58.931 71.806-12.111 29.235-15.278 61.406-9.103 92.443 6.171 31.037 21.412 59.546 43.786 81.923 22.378 22.374 50.886 37.615 81.923 43.786 31.037 6.175 63.208 3.007 92.443-9.103 29.239-12.111 54.224-32.618 71.806-58.931 17.582-26.31 26.965-57.245 26.965-88.89v-32c0-8.486-3.372-16.626-9.373-22.627s-14.141-9.373-22.627-9.373c-8.486 0-16.626 3.372-22.627 9.373s-9.373 14.141-9.373 22.627v32c0 18.988-5.629 37.547-16.179 53.333-10.547 15.79-25.542 28.092-43.083 35.359s-36.844 9.168-55.467 5.465c-18.623-3.707-35.727-12.848-49.152-26.276-13.428-13.425-22.569-30.529-26.276-49.152-3.703-18.623-1.802-37.926 5.465-55.467s19.569-32.536 35.359-43.083c15.787-10.551 34.345-16.179 53.333-16.179 16.531 0.106 32.748 4.529 47.039 12.831 11.063-17.626 27.563-31.171 47.005-38.588s40.769-8.301 60.761-2.522c19.992 5.779 37.557 17.913 50.039 34.56 12.483 16.65 19.207 36.912 19.156 57.719v32c-0.068 59.389-23.689 116.323-65.683 158.317s-98.929 65.615-158.317 65.683zM768 224c-6.328 0-12.517 1.877-17.777 5.393-5.263 3.516-9.366 8.513-11.786 14.36-2.423 5.847-3.058 12.281-1.823 18.49s4.284 11.909 8.759 16.384c4.475 4.475 10.175 7.523 16.384 8.759s12.643 0.601 18.49-1.823c5.847-2.42 10.844-6.523 14.36-11.786 3.516-5.26 5.393-11.448 5.393-17.777 0-8.486-3.372-16.626-9.373-22.627s-14.141-9.373-22.627-9.373z" />
<glyph unicode="&#xe906;" glyph-name="icon-7" d="M236.816 688.268c5.124-10.914 16.010-17.904 28.086-17.904h150.859v-53.291c0-17.142 13.906-31.031 31.102-31.031 17.108 0 31.014 13.889 31.014 31.031v53.291h14.275c17.196 0 31.010 13.888 31.010 31.040 0 17.134-13.814 31.022-31.010 31.022h-14.275v186.226c0 13.054-8.141 24.71-20.401 29.146-12.257 4.464-26.071 0.778-34.396-9.23l-181.963-217.246c-7.778-9.23-9.424-22.132-4.3-33.054zM1024 449.969c0-136.714-53.234-265.366-149.914-362.042-96.686-96.686-225.352-149.958-362.086-149.958s-265.4 53.272-362.086 149.958c-96.678 96.676-149.914 225.328-149.914 362.042 0 25.692 20.832 46.554 46.528 46.554 25.744 0 46.528-20.821 46.528-46.554 0-230.96 187.994-418.905 418.941-418.905 230.953 0 418.946 187.945 418.946 418.905 0 209.486-156.396 388.256-364.23 415.358-25.426 3.316-43.373 26.742-40.093 52.156 3.287 25.438 26.737 43.476 52.159 40.156 122.549-16.002 234.926-76.014 316.815-168.558 82.859-93.638 128.406-214.082 128.406-339.112zM415.758 833.262v-100.834h-84.348l84.348 100.834zM572.839 174.107c-9.24-14.428-5.035-33.628 9.421-42.861 4.963-3.198 10.745-4.902 16.65-4.902 10.247 0 20.217 5.038 26.163 14.288l193.215 301.578c6.13 9.571 6.496 21.692 1.096 31.638-2.683 4.881-6.629 8.957-11.424 11.793-4.796 2.84-10.264 4.338-15.834 4.342h-176.384c-17.2 0-31.010-13.885-31.010-31.031s13.814-31.031 31.010-31.031h119.661l-162.563-253.815zM735.311 744.319c12.076-12.122 12.076-31.772 0-43.896l-457.418-457.421c-6.128-6.055-13.996-9.083-21.956-9.083-7.958 0-15.918 3.028-21.956 9.083-12.076 12.124-12.076 31.764 0 43.885l457.421 457.432c12.073 12.122 31.744 12.122 43.909 0zM190.982 809.328c7.868 28.762 2.928 50.444-14.73 64.424-19.852 15.654-52.694 18.406-75.016 6.286-16.924-9.212-24.426-25.13-22.23-47.298 1.556-17.070-10.886-32.24-27.994-33.868-17.016-1.61-32.202 10.86-33.85 27.912-4.482 47.206 15.278 86.48 54.434 107.75 43.822 23.896 104.018 18.79 143.172-12.122 37.326-29.558 50.5-76.738 36.136-129.432-9.698-35.57-42.998-61.506-81.422-91.548-20.858-16.23-43.272-33.702-62.026-53.326h128.536c17.108 0 31.014-13.886 31.014-31.033 0-17.142-13.906-31.031-31.014-31.031h-188.824c-5.255 0.010-10.421 1.355-15.016 3.905s-8.466 6.226-11.254 10.68c-2.788 4.454-4.4 9.544-4.685 14.79-0.286 5.248 0.765 10.481 3.053 15.212 25.25 52.046 71.358 88.008 111.976 119.716 27.262 21.3 55.532 43.312 59.74 58.982z" />
<glyph unicode="&#xe907;" glyph-name="icon-8" d="M512 906.656c158.848 0 288-130.304 288-291.031 0-54.442-23.978-121.984-58.88-189.354-76.842-148.352-204.842-297.77-204.842-297.77-3.005-3.501-6.73-6.307-10.922-8.234-4.189-1.923-8.746-2.918-13.357-2.918s-9.168 0.995-13.357 2.918c-4.192 1.926-7.917 4.733-10.922 8.234 0 0-128 149.418-204.842 297.77-34.901 67.37-58.88 134.912-58.88 189.354 0 160.727 129.152 291.031 288 291.031zM512 735.989c-30.57-0.824-59.613-13.548-80.944-35.462s-33.267-51.289-33.267-81.871c0-30.582 11.936-59.955 33.267-81.872 21.331-21.914 50.374-34.637 80.944-35.462 30.57 0.826 59.613 13.549 80.944 35.462 21.331 21.917 33.267 51.29 33.267 81.872s-11.936 59.957-33.267 81.871c-21.331 21.915-50.374 34.638-80.944 35.462zM716.077 218.582c34.688-10.41 63.274-23.296 83.027-38.4 12.8-9.728 22.189-19.242 22.189-30.848 0-6.826-3.885-13.014-9.344-19.2-9.046-10.198-22.486-19.37-39.126-27.904-58.794-30.080-153.856-48.896-260.864-48.896s-202.069 18.816-260.864 48.896c-16.64 8.534-30.080 17.706-39.125 27.904-5.461 6.186-9.344 12.374-9.344 19.2 0 11.606 9.387 21.12 22.187 30.848 19.755 15.104 48.341 27.99 83.029 38.4 8.131 2.445 14.956 8.019 18.978 15.494 4.019 7.478 4.906 16.246 2.461 24.378s-8.016 14.957-15.495 18.979c-7.477 4.019-16.246 4.906-24.376 2.461-52.821-15.914-93.867-37.718-118.528-61.824-21.675-21.12-32.256-44.758-32.256-68.736 0-29.952 16.939-59.818 51.371-84.736 60.416-43.69 181.761-75.264 321.963-75.264s261.546 31.574 321.962 75.264c34.432 24.918 51.373 54.784 51.373 84.736 0 23.978-10.582 47.616-32.256 68.736-24.662 24.106-65.709 45.91-118.528 61.824-4.026 1.21-8.253 1.616-12.435 1.194s-8.24-1.664-11.942-3.654c-3.702-1.994-6.976-4.694-9.635-7.949-2.659-3.258-4.65-7.005-5.859-11.030-1.213-4.026-1.616-8.25-1.194-12.432s1.664-8.243 3.654-11.946c1.99-3.702 4.691-6.976 7.949-9.635 3.254-2.656 7.005-4.65 11.030-5.859z" />
<glyph unicode="&#xe909;" glyph-name="icon-10" d="M812.001 898h-240.002c-115.78 0-209.999-94.218-209.999-210 0-105.617 78.37-193.271 179.999-207.863v-92.136c-0.003-5.936 1.754-11.735 5.048-16.671 3.297-4.932 7.984-8.776 13.469-11.042 11.066-4.618 24.044-2.144 32.696 6.502l111.21 111.21h107.578c115.78 0 211.999 94.218 211.999 210s-96.218 210-211.999 210zM572 658.004c-16.572 0-30 13.432-30 30s13.428 30 30 30c16.568 0 30-13.432 30-30s-13.431-30-30-30zM691.999 658.004c-16.572 0-30 13.432-30 30s13.428 30 30 30c16.568 0 30-13.432 30-30s-13.431-30-30-30zM812.001 658.004c-16.572 0-30 13.432-30 30s13.428 30 30 30c16.568 0 30-13.432 30-30s-13.431-30-30-30zM674-2c49.626 0 89.999 40.373 89.999 89.999v120.003c0 12.919-8.26 24.375-20.507 28.447l-179.579 60c-8.789 2.959-18.398 1.611-26.132-3.485l-76.346-50.889c-80.862 38.554-176.807 134.502-215.363 215.361l50.888 76.349c2.531 3.802 4.161 8.134 4.764 12.663s0.167 9.134-1.278 13.469l-60 179.578c-1.987 5.973-5.804 11.168-10.91 14.849s-11.242 5.66-17.536 5.657h-122c-49.628 0-90-39.95-90-89.578 0-345.643 328.356-672.422 674-672.422z" />
<glyph unicode="&#xe90a;" glyph-name="icon-11" d="M431.797 590.432c5.205-2.963 11.134-4.427 17.121-4.222 6.134 0.563 12.080 2.427 17.439 5.472l384.321 224.255c-8.352 14.557-20.388 26.661-34.895 35.097s-30.979 12.908-47.763 12.967h-639.999c-16.788-0.053-33.266-4.522-47.781-12.959s-26.553-20.543-34.908-35.105l386.464-225.505zM864 749.761v-222.401c-30.792 11.083-63.276 16.715-96 16.64-76.346-0.119-149.531-30.498-203.517-84.483s-84.364-127.171-84.483-203.517c-0.007-10.694 0.635-21.381 1.922-32h-353.922c-25.438 0.075-49.811 10.216-67.798 28.201-17.987 17.988-28.126 42.363-28.202 67.799v429.761l367.681-214.721c14.814-8.103 31.433-12.349 48.319-12.349s33.505 4.246 48.319 12.349l367.681 214.721zM768 480c-59.409 0-116.384-23.6-158.392-65.608s-65.608-98.983-65.608-158.392c0-59.409 23.6-116.384 65.608-158.392s98.983-65.608 158.392-65.608c8.486 0 16.626 3.372 22.627 9.373s9.373 14.141 9.373 22.627c0 8.486-3.372 16.626-9.373 22.627s-14.141 9.373-22.627 9.373c-31.645 0-62.58 9.383-88.89 26.965-26.313 17.582-46.821 42.568-58.931 71.806-12.111 29.235-15.278 61.406-9.103 92.443 6.171 31.037 21.412 59.546 43.786 81.923 22.378 22.374 50.886 37.615 81.923 43.786 31.037 6.175 63.208 3.007 92.443-9.103 29.239-12.111 54.224-32.618 71.806-58.931 17.582-26.31 26.965-57.245 26.965-88.89v-32c0-8.486-3.372-16.626-9.373-22.627s-14.141-9.373-22.627-9.373c-8.486 0-16.626 3.372-22.627 9.373s-9.373 14.141-9.373 22.627v32c0 18.988-5.629 37.547-16.179 53.333-10.547 15.79-25.542 28.092-43.083 35.359s-36.844 9.168-55.467 5.465c-18.623-3.707-35.727-12.848-49.152-26.276-13.428-13.425-22.569-30.529-26.276-49.152-3.703-18.623-1.802-37.926 5.465-55.467s19.569-32.536 35.359-43.083c15.787-10.551 34.345-16.179 53.333-16.179 16.531 0.106 32.748 4.529 47.039 12.831 11.063-17.626 27.563-31.171 47.005-38.588s40.769-8.301 60.761-2.522c19.992 5.779 37.557 17.913 50.039 34.56 12.483 16.65 19.207 36.912 19.156 57.719v32c-0.068 59.389-23.689 116.323-65.683 158.317s-98.929 65.615-158.317 65.683zM768 224c-6.328 0-12.517 1.877-17.777 5.393-5.263 3.516-9.366 8.513-11.786 14.36-2.423 5.847-3.058 12.281-1.823 18.49s4.284 11.909 8.759 16.384c4.475 4.475 10.175 7.523 16.384 8.759s12.643 0.601 18.49-1.823c5.847-2.42 10.844-6.523 14.36-11.786 3.516-5.26 5.393-11.448 5.393-17.777 0-8.486-3.372-16.626-9.373-22.627s-14.141-9.373-22.627-9.373z" />
<glyph unicode="&#xe90b;" glyph-name="icon-12" d="M512 906.656c158.848 0 288-130.304 288-291.031 0-54.442-23.978-121.984-58.88-189.354-76.842-148.352-204.842-297.77-204.842-297.77-3.005-3.501-6.73-6.307-10.922-8.234-4.189-1.923-8.746-2.918-13.357-2.918s-9.168 0.995-13.357 2.918c-4.192 1.926-7.917 4.733-10.922 8.234 0 0-128 149.418-204.842 297.77-34.901 67.37-58.88 134.912-58.88 189.354 0 160.727 129.152 291.031 288 291.031zM512 735.989c-30.57-0.824-59.613-13.548-80.944-35.462s-33.267-51.289-33.267-81.871c0-30.582 11.936-59.955 33.267-81.872 21.331-21.914 50.374-34.637 80.944-35.462 30.57 0.826 59.613 13.549 80.944 35.462 21.331 21.917 33.267 51.29 33.267 81.872s-11.936 59.957-33.267 81.871c-21.331 21.915-50.374 34.638-80.944 35.462zM716.077 218.582c34.688-10.41 63.274-23.296 83.027-38.4 12.8-9.728 22.189-19.242 22.189-30.848 0-6.826-3.885-13.014-9.344-19.2-9.046-10.198-22.486-19.37-39.126-27.904-58.794-30.080-153.856-48.896-260.864-48.896s-202.069 18.816-260.864 48.896c-16.64 8.534-30.080 17.706-39.125 27.904-5.461 6.186-9.344 12.374-9.344 19.2 0 11.606 9.387 21.12 22.187 30.848 19.755 15.104 48.341 27.99 83.029 38.4 8.131 2.445 14.956 8.019 18.978 15.494 4.019 7.478 4.906 16.246 2.461 24.378s-8.016 14.957-15.495 18.979c-7.477 4.019-16.246 4.906-24.376 2.461-52.821-15.914-93.867-37.718-118.528-61.824-21.675-21.12-32.256-44.758-32.256-68.736 0-29.952 16.939-59.818 51.371-84.736 60.416-43.69 181.761-75.264 321.963-75.264s261.546 31.574 321.962 75.264c34.432 24.918 51.373 54.784 51.373 84.736 0 23.978-10.582 47.616-32.256 68.736-24.662 24.106-65.709 45.91-118.528 61.824-4.026 1.21-8.253 1.616-12.435 1.194s-8.24-1.664-11.942-3.654c-3.702-1.994-6.976-4.694-9.635-7.949-2.659-3.258-4.65-7.005-5.859-11.030-1.213-4.026-1.616-8.25-1.194-12.432s1.664-8.243 3.654-11.946c1.99-3.702 4.691-6.976 7.949-9.635 3.254-2.656 7.005-4.65 11.030-5.859z" />
<glyph unicode="&#xe90c;" glyph-name="icon-13" d="M0 789.333c0 15.088 5.994 29.558 16.662 40.227s25.139 16.662 40.227 16.662h910.222c15.087 0 29.559-5.994 40.226-16.662s16.663-25.139 16.663-40.227c0-15.088-5.996-29.558-16.663-40.227s-25.139-16.662-40.226-16.662h-910.222c-15.088 0-29.558 5.994-40.227 16.662s-16.662 25.139-16.662 40.227zM0 448c0 15.088 5.994 29.558 16.662 40.227s25.139 16.662 40.227 16.662h568.889c15.087 0 29.559-5.994 40.226-16.662s16.663-25.139 16.663-40.227c0-15.088-5.996-29.558-16.663-40.227s-25.139-16.662-40.226-16.662h-568.889c-15.088 0-29.558 5.994-40.227 16.662s-16.662 25.139-16.662 40.227zM0 106.667c0 15.087 5.994 29.559 16.662 40.226s25.139 16.663 40.227 16.663h284.444c15.088 0 29.558-5.996 40.227-16.663s16.662-25.139 16.662-40.226c0-15.087-5.994-29.559-16.662-40.226s-25.139-16.663-40.227-16.663h-284.444c-15.088 0-29.558 5.996-40.227 16.663s-16.662 25.139-16.662 40.226z" />
<glyph unicode="&#xe90d;" glyph-name="icon-14" d="M376.921 419.502c-39.57 7.378-225.512 8.724-272.329 0-41.052-7.66-74.546-38.712-85.329-79.114-25.683-96.22-25.683-202.204 0-298.429 10.783-40.402 44.275-71.455 85.331-79.109 82.605-15.401 189.952-15.355 272.325 0 41.054 7.654 74.548 38.707 85.331 79.109 25.683 96.225 25.683 202.209 0 298.429-10.783 40.402-44.275 71.46-85.329 79.114zM244.354 84.357h-80.397v215.004h66.873c48.692-1.469 84.865-6.108 87.011-54.415 0.23-22.81-10.903-42.68-33.072-46.469v-1.469c27.539-6.118 38.304-22.738 38.512-50.294-0.186-43.853-36.188-62.5-78.927-62.356zM237.719 178.038h-28.219v-56.028h29.687c22.316 0.179 36.461 6.84 36.744 29.266 0 17.838-12.734 26.762-38.212 26.762zM271.082 238.92c-0.912 20.925-16.828 22.369-37.625 23.086h-23.956v-47.79h26.456c20.738 0.44 34.789 3.722 35.126 24.704zM1004.718 340.388c-10.783 40.402-44.273 71.46-85.33 79.114v0c-40.719 7.593-231.603 7.593-272.328 0-41.052-7.66-74.547-38.712-85.33-79.114-25.682-96.22-25.682-202.204 0-298.424 10.783-40.407 44.278-71.46 85.335-79.114 82.601-15.396 189.947-15.355 272.323 0 41.052 7.654 74.547 38.707 85.33 79.114 25.682 96.22 25.682 202.204 0 298.424zM797.701 119.363c15.084 0 33.362 3.768 54.82 11.32v-38.236c-38.758-16.819-103.885-16.881-130.811 17.428-31.16 35.702-32.645 99.087-12.636 140.442 26.45 57.144 98.76 63.662 151.526 36.987l-14.694-37.059c-15.201 6.953-31.672 14.423-48.205 14.264-73.661-1.111-73.539-145.147 0-145.147zM512.051 784.125c-3.235-12.537-12.499-43.535-27.793-92.991h56.025c-14.413 46.323-22.523 72.522-24.335 78.594-1.818 6.072-3.113 10.873-3.896 14.397zM733.45 558.493c25.687 96.221 25.687 202.205 0 298.428-10.783 40.404-44.273 71.459-85.33 79.11-36.966 6.894-218.002 15.638-274.333-0.47-42.89-12.262-73.26-40.925-83.325-78.638-25.683-96.223-25.683-202.207 0-298.428 9.459-35.45 36.987-61.744 81.817-78.15 74.794-27.377 198.939-15.303 275.841-0.963 41.052 7.649 74.552 38.704 85.33 79.111zM566.707 600.892l-15.58 51.178h-78.34l-15.579-51.178h-49.093l75.839 215.885h55.704l76.134-215.885h-49.085z" />
<glyph unicode="&#xe90e;" glyph-name="icon-15" d="M466.286 356.571c0 12.124-4.816 23.752-13.39 32.325s-20.201 13.39-32.325 13.39h-320c-12.124 0-23.752-4.816-32.325-13.39s-13.389-20.201-13.389-32.325v-320c0-12.127 4.816-23.749 13.389-32.322 8.573-8.58 20.201-13.392 32.325-13.392h320c12.124 0 23.752 4.813 32.325 13.392 8.573 8.572 13.39 20.195 13.39 32.322v320zM969.143 356.571c0 12.124-4.813 23.752-13.392 32.325-8.572 8.573-20.195 13.39-32.322 13.39h-320c-12.124 0-23.752-4.816-32.325-13.39s-13.39-20.201-13.39-32.325v-320c0-12.127 4.816-23.749 13.39-32.322 8.573-8.58 20.201-13.392 32.325-13.392h320c12.127 0 23.749 4.813 32.322 13.392 8.58 8.572 13.392 20.195 13.392 32.322v320zM969.143 859.429c0 12.124-4.813 23.752-13.392 32.325-8.572 8.573-20.195 13.389-32.322 13.389h-320c-12.124 0-23.752-4.816-32.325-13.389s-13.39-20.201-13.39-32.325v-320c0-12.124 4.816-23.752 13.39-32.325s20.201-13.39 32.325-13.39h320c12.127 0 23.749 4.816 32.322 13.39 8.58 8.573 13.392 20.201 13.392 32.325v320zM466.286 859.429c0 12.124-4.816 23.752-13.39 32.325s-20.201 13.389-32.325 13.389h-320c-12.124 0-23.752-4.816-32.325-13.389s-13.389-20.201-13.389-32.325v-320c0-12.124 4.816-23.752 13.389-32.325s20.201-13.39 32.325-13.39h320c12.124 0 23.752 4.816 32.325 13.39s13.39 20.201 13.39 32.325v320z" />
<glyph unicode="&#xe90f;" glyph-name="icon-16" d="M1005.338 678.458l-121.974-168.476c-1.075-1.489-2.437-2.752-4.004-3.715-1.562-0.964-3.302-1.609-5.12-1.9-1.812-0.291-3.666-0.221-5.458 0.205-1.787 0.426-3.471 1.2-4.961 2.278l-60.539 43.802v-489.566c0-3.717-1.475-7.276-4.101-9.902-2.621-2.627-6.185-4.101-9.897-4.101h-554.568c-3.713 0-7.274 1.475-9.9 4.101s-4.1 6.185-4.1 9.902v489.566l-60.536-43.802c-1.489-1.078-3.175-1.852-4.964-2.278s-3.643-0.496-5.458-0.205c-1.815 0.291-3.555 0.936-5.121 1.9s-2.926 2.226-4.004 3.715l-121.974 168.476c-2.177 3.007-3.070 6.756-2.484 10.422s2.605 6.949 5.612 9.126l179.208 129.772c19.7 14.224 41.024 21.132 65.21 21.132h68.016c11.946-87.424 87.098-155.006 177.75-155.006s165.804 67.582 177.748 155.006h68.076c24.182 0 45.512-6.91 65.193-21.122l179.22-129.784c1.49-1.078 2.749-2.439 3.717-4.004 0.963-1.566 1.608-3.306 1.894-5.122 0.292-1.816 0.225-3.67-0.205-5.458-0.425-1.788-1.198-3.475-2.278-4.964v0.002zM511.97 753.907c57.482 0 105.599 40.828 116.899 95.006h-233.799c11.298-54.178 59.418-95.006 116.9-95.006z" />
<glyph unicode="&#xe910;" glyph-name="icon-17" d="M512 620c93.891 0 169.999 76.111 169.999 170s-76.109 170-169.999 170c-93.889 0-170-76.111-170-170s76.111-170 170-170zM636.918 596.969c-35.994-23.374-78.894-36.97-124.918-36.97-46.022 0-88.924 13.596-124.918 36.97-40.017-15.294-76.882-37.813-108.76-66.432l233.678-87.631 233.677 87.631c-31.877 28.62-68.741 51.138-108.759 66.432zM871.997 339.999h-19.999c-16.568 0-29.998-13.43-29.998-29.998v-80c0-16.568 13.43-30.003 29.998-30.003h19.999c38.661 0 70.001 31.34 70.001 70.001s-31.34 70.001-70.001 70.001zM174.912 491.447c-3.984-2.761-7.24-6.447-9.489-10.741s-3.423-9.070-3.423-13.917v-66.789h10c49.626 0 90-40.376 90-89.999v-80c0-49.628-40.374-89.999-90-89.999h-10v-63.212c0-6.108 1.864-12.068 5.342-17.091 3.479-5.018 8.406-8.858 14.124-11.003l300.534-112.696v454.077l-279.466 104.801c-4.538 1.704-9.422 2.281-14.233 1.684s-9.405-2.353-13.389-5.116zM761.999 230.001v80c0 49.628 40.376 89.999 89.999 89.999h9.999v66.79c0 4.848-1.172 9.623-3.42 13.917s-5.504 7.98-9.492 10.741c-3.983 2.761-8.576 4.516-13.389 5.113-4.808 0.598-9.692 0.021-14.228-1.681l-279.47-104.798v-454.083l300.534 112.701c5.719 2.145 10.65 5.98 14.126 11.003 3.476 5.018 5.34 10.977 5.34 17.085v63.212h-9.999c-49.623 0-89.999 40.371-89.999 89.999zM202 230.001v80c0 16.568-13.432 29.998-30 29.998h-20c-38.66 0-70-31.34-70-70.001 0-38.656 31.34-69.996 70-69.996h20c16.568 0 30 13.43 30 29.998z" />
<glyph unicode="&#xe911;" glyph-name="icon-18" d="M58.892 418.002h180.5v-181.002h-180.5v181.002zM299.892 418.002h180.5v-181.002h-180.5v181.002zM239.392 478v30.25c0 16.68 13.57 30.25 30.25 30.25s30.25-13.57 30.25-30.25v-30.25h180.5v181h-421.5v-181h180.5zM603.858 176.998v-240.998h149.14c16.568 0 30.003 13.43 30.003 29.998v60.252c0 16.681 13.568 30.249 30.249 30.249s30.249-13.568 30.249-30.249v-60.252c0-16.568 13.435-29.998 29.998-29.998h120.504c16.568 0 29.998 13.43 29.998 29.998v211h-420.142zM487.576 719c27.977 0 40.726 34.91 19.334 52.938l-212.862 179.416c-13.742 11.584-35.854 11.518-49.508-0.14l-210.042-179.402c-21.198-18.106-8.394-52.812 19.484-52.812h433.594zM1009.024 598.5l-171.331 228.974c-2.796 3.734-6.42 6.764-10.588 8.852-4.173 2.087-8.771 3.174-13.435 3.174h-0.092c-4.68-0.015-9.293-1.124-13.466-3.239s-7.793-5.177-10.573-8.941l-168.96-228.82h388.444zM543.857 176.998h-242.597v-240.998h242.597v240.998zM241.26 176.998h-241.26v-211c0-16.568 13.432-29.998 30-29.998h211.26v240.998zM1024 237v301.5h-418.284v-301.5h418.284zM814.858 446.392c32.384 0 58.639-26.255 58.639-58.644 0-32.384-26.25-58.639-58.639-58.639-32.384 0-58.644 26.255-58.644 58.639 0 32.389 26.26 58.644 58.644 58.644z" />
<glyph unicode="&#xe912;" glyph-name="icon-19" d="M353.792 466.602h316.585c20.48 0 37.207 16.726 37.207 37.206v316.586c0 20.48-16.727 37.206-37.207 37.206h-316.585c-20.48 0-37.206-16.726-37.206-37.206v-316.586c0-20.48 16.726-37.206 37.206-37.206zM412.502 692.224c1.877 5.802 6.485 10.24 12.458 12.118l45.056 13.141 26.454 38.912c6.997 10.070 23.891 10.070 30.89 0l26.455-38.912 45.056-13.141c5.97-1.878 10.578-6.315 12.457-12.118 2.048-5.974 0.855-12.288-2.729-17.066l-28.672-37.206 1.193-47.104c0.169-6.144-2.56-11.946-7.68-15.53-3.241-2.39-6.999-3.755-10.921-3.755-2.048 0-4.096 0.342-6.144 1.195l-44.375 15.872-44.374-15.872c-5.802-2.048-12.288-1.195-17.066 2.56-4.95 3.584-7.85 9.386-7.68 15.53l1.194 47.104-28.672 37.206c-3.754 4.778-4.949 11.093-2.901 17.066zM139.606 38.4h316.586c20.48 0 37.206 16.727 37.206 37.207v316.585c0 20.48-16.726 37.207-37.206 37.207h-316.586c-20.48 0-37.206-16.727-37.206-37.207v-316.585c0-20.48 16.726-37.207 37.206-37.207zM297.814 345.6c29.625 0 58.037-11.771 78.985-32.717s32.716-49.362 32.716-78.986c0-29.624-11.768-58.035-32.716-78.981-20.948-20.951-49.36-32.717-78.985-32.717-61.611 0-111.616 50.002-111.616 111.616 0 61.778 50.005 111.785 111.616 111.785zM884.393 429.399h-316.585c-20.48 0-37.207-16.727-37.207-37.207v-316.585c0-20.48 16.727-37.207 37.207-37.207h316.585c20.48 0 37.207 16.727 37.207 37.207v316.585c0 20.48-16.727 37.207-37.207 37.207zM816.297 140.119c-3.584-5.463-9.385-8.704-15.698-8.704h-148.992c-6.318 0-12.119 3.241-15.534 8.704-3.41 5.12-3.922 11.776-1.362 17.577l74.409 167.593c3.072 6.656 9.559 10.926 17.065 10.926 7.342 0 13.824-4.27 16.896-10.926l74.414-167.593c2.56-5.801 2.048-12.457-1.198-17.577z" />
<glyph unicode="&#xe913;" glyph-name="icon-20" d="M902.098 472.382h-73.144v195.046c0 53.881-43.643 97.525-97.526 97.525h-195.046v73.143c0 67.292-54.615 121.904-121.906 121.904s-121.904-54.612-121.904-121.904v-73.143h-195.047c-53.881 0-97.036-43.641-97.036-97.525l-0.245-185.296h72.898c72.656 0 131.657-59 131.657-131.658 0-72.653-59.001-131.656-131.657-131.656h-72.898l-0.245-185.293c0-53.883 43.641-97.526 97.525-97.526h185.296v73.144c0 72.653 59.001 131.656 131.657 131.656s131.657-59.003 131.657-131.656v-73.144h185.293c53.883 0 97.526 43.643 97.526 97.526v195.046h73.144c67.287 0 121.902 54.61 121.902 121.902s-54.615 121.908-121.902 121.908z" />
<glyph unicode="&#xe914;" glyph-name="icon-21" d="M989.865 140.8h-34.135v68.265c0 75.269-61.266 136.535-136.53 136.535h-1.536c-16.092 179.742-158.387 323.522-339.8 339.786v76.102c10.73-3.826 22.11-6.288 34.134-6.288 56.465 0 102.402 45.934 102.402 102.4s-45.932 102.4-102.4 102.4c-26.322 0-50.108-10.258-68.266-26.634-18.16 16.376-41.946 26.634-68.268 26.634-56.466 0-102.4-45.934-102.4-102.4s45.934-102.4 102.4-102.4c12.024 0 23.404 2.462 34.134 6.288v-76.122c-191.068-17.31-341.334-178.406-341.334-373.896v-170.67h-34.132c-18.868 0-34.134-15.268-34.134-34.135s15.266-34.135 34.134-34.135h102.4c0-75.264 61.266-136.53 136.532-136.53s136.534 61.266 136.534 136.535h204.8c0-75.269 61.266-136.535 136.535-136.535 75.264 0 136.535 61.266 136.535 136.535h102.4c18.862 0 34.13 15.263 34.13 34.135 0 18.867-15.268 34.13-34.135 34.13zM512 891.734c18.801 0 34.135-15.332 34.135-34.134s-15.334-34.134-34.135-34.134c-18.8 0-34.134 15.334-34.134 34.134s15.334 34.134 34.134 34.134zM273.066 4.265c-37.668 0-68.266 30.602-68.266 68.265 0 36.541 29.62 68.27 68.266 68.27 38.434 0 68.266-31.78 68.266-68.27 0.002-37.663-30.598-68.265-68.266-68.265zM409.6 277.335h-170.666c-18.866 0-34.134 15.263-34.134 34.135 0 120.044 89.316 218.74 204.8 235.482v-269.617zM375.466 823.466c-18.8 0-34.134 15.332-34.134 34.134s15.332 34.134 34.134 34.134c18.802 0 34.134-15.334 34.134-34.134s-15.332-34.134-34.134-34.134zM648.535 277.335h-170.667v269.615c115.484-16.742 204.802-115.437 204.802-235.485-0.005-18.867-15.268-34.13-34.135-34.13zM750.935 4.265c-37.668 0-68.265 30.602-68.265 68.265 0 36.541 29.619 68.27 68.265 68.27 38.431 0 68.265-31.78 68.265-68.27 0-37.663-30.602-68.265-68.265-68.265z" />
<glyph unicode="&#xe915;" glyph-name="icon-22" d="M512 539.987c16.568 0 29.998 13.431 29.998 30s-13.43 30-29.998 30c-16.568 0-30-13.432-30-30s13.432-30 30-30zM368.24 553.489l-61.079-61.079-171.597 172.497c61.407-40.327 157.335-90.012 232.676-111.418zM473.239 651.187c-20.86-10-37.28-27.78-45.459-49.579-79.462 10.988-192.179 70.162-259.295 113.458l-46.459 30.5v184.417c0 26.7 32.379 40.039 51.219 21.2l299.995-299.995zM606.935 946.442c-41.416-63.409-89.974-157.475-111.417-232.676l-61.079 61.079 172.496 171.597zM893.23 908.763l-300.012-299.995c-9.984 20.819-27.72 37.219-49.459 45.419 10.747 78.455 70.333 193.725 113.336 259.336l30.479 46.459h184.438c26.68 0 40.059-32.359 21.217-51.219zM888.468 475.070c-61.061 40.103-156.662 89.766-232.694 111.418l61.097 61.079 171.597-172.497zM902.011 394.429v-184.433c0-26.824-32.44-39.982-51.22-21.222l-299.991 300.016c20.838 9.98 37.258 27.78 45.455 49.559 79.493-10.932 192.369-70.263 259.297-113.44l46.459-30.479zM480.418 485.73c-11.8-87.379-81.939-211.196-113.478-259.278l-30.499-46.459h-184.417c-26.7 0-40.039 32.379-21.22 51.22l300.015 299.995c10-20.859 27.8-37.279 49.599-45.479zM589.599 365.133l-172.499-171.597c42.153 64.338 90.444 158.966 111.438 232.673l61.061-61.076zM589.599 365.133l-172.499-171.597c42.153 64.338 90.445 158.966 111.438 232.678l61.061-61.082zM542.019 232.714v-266.716c0-16.558-13.44-29.998-29.998-29.998-16.562 0-30.002 13.44-30.002 29.998v206.72l60 59.996z" />
</font>
</defs>
</svg>
